Future Ft. Miley Cyrus Mr Hudson - Real And True [Music Video] 1080p [Sbyky].MP4 torrent


Category: Music - Music
Added: 11 months ago
Size: 72 MB
Peers: 0 Seeders & 0 Leechers Future Ft. Miley Cyrus  Mr Hudson - Real And True [Music Video] 1080p [Sbyky].MP4 torrent health  [ Update ]
updated 'never'
Infohash: a671085e7f9fc4395ab4c1c025c44cc4ccd290d7
Share:
Description: General Complete name : Future Ft. Miley Cyrus & Mr Hudson - Real And True 1080p .MP4 Format : MPEG-4 Format profile : Base Media Codec ID : isom File size : 71.7 MiB Duration : 4mn 33s Overall bit rate mode : Variable Overall bit rate : 2 197 Kbps Encoded date : UTC 2013-11-11 10:31:38 Tagged date : UTC 2013-11-11 10:31:38 Video ID : 1 Format : AVC Format/Info : Advanced Video Codec Format profile : /* */ Format settings, CABAC : Yes Format settings, ReFrames : 3 frames Codec ID : avc1 Codec ID/Info : Advanced Video Coding Duration : 4mn 33s Bit rate : 1 941 Kbps Width : 1 920 pixels Height : 1 080 pixels Display aspect ratio : 16:9 Frame rate mode : Constant Frame rate : 23.976 fps Color space : YUV Chroma subsampling : 4:2:0 Bit depth : 8 bits Scan type : Progressive Bits/(Pixel*Frame) : 0.039 Stream size : 63.3 MiB (88%) Encoded date : UTC 2013-11-11 10:31:38 Tagged date : UTC 2013-11-11 10:31:38 Audio ID : 2 Format : AAC Format/Info : Advanced Audio Codec Format profile : LC Codec ID : 40 Duration : 4mn 33s Bit rate mode : Variable Bit rate : 254 Kbps Channel(s) : 2 channels Channel positions : Front: L R Sampling rate : 44.1 KHz Compression mode : Lossy Delay relative to video : 42ms Stream size : 8.27 MiB (12%) Encoded date : UTC 2013-11-11 10:29:55 Tagged date : UTC 2013-11-11 10:29:55 Shared By Sbyky
Comments: Read reviews (0) or add your own
Recommended Clients:
TorrentPrivacy – For secure download

Files

File name Size
Future Ft. Miley Cyrus & Mr Hudson - Real And True [Music Video] 1080p [Sbyky].MP4   Future Ft. Miley Cyrus & Mr Hudson - Real And True [Music Video] 1080p [Sbyky].MP4 71.66 MB

No reviews posted yet.

Add your own review

Post comment

Type: 
Comment: