Chronicle 2012 HINDI MOVIE torrent


Category: Movies
Added: 1 Year+
Size: 857 MB
Peers: 1 Seeders & 3 Leechers Chronicle 2012 HINDI MOVIE torrent health  [ Update ]
updated 'never'
Infohash: 809a6ac70cb2dc5ece4c6b55254405de0086a115
Share:
Description: Chronicle (2012) Format : AVI Format/Info : Audio Video Interleave Format profile : OpenDML File size : 857 MiB Duration : 1h 49mn Overall bit rate : 1 714 Kbps Writing application : VirtualDubMod 1.5.10.2 (build 2542/release) Writing library : VirtualDubMod build 2542/release Original source form : MAX TORRENTZ Video ID : 0 Format : MPEG-4 Visual Format profile : AdvancedSimple@L5 Format settings, BVOP : Yes Format settings, QPel : No Format settings, GMC : No warppoints Format settings, Matrix : Default (H.263) Codec ID : XVID Codec ID/Hint : XviD Duration : 1h 49mn Bit rate : 1 325 Kbps Width : 640 pixels Height : 272 pixels Display aspect ratio : 2.35:1 Frame rate : 23.976 fps Resolution : 24 bits Colorimetry : 4:2:0 Scan type : Progressive Bits/(Pixel*Frame) : 0.318 Stream size : 857 MiB (77%) Writing library : XviD 61 Audio ID : 1 Format : AC-3 Format/Info : Audio Coding 3 Codec ID : 2000 Duration : 1h 49mn Bit rate mode : Constant Bit rate : 384 Kbps Channel(s) : 6 channels Channel positions : Front: L C R, Surround: L R, LFE Sampling rate : 48.0 KHz Stream size : 147 MiB (22%) Alignment : Aligned on interleaves Interleave, duration : 64 ms (1.54 video frames) Interleave, preload duration : 192 ms http://www.imdb.com/title/tt1706593/ Chronicle 2012 How To Get Your Maxspeed (uTorrent) Torrent Client - Preferences - Bandwidth - Number of connections - Set aprox. 500 for each Torrent Client - Preferences - BiTorrent - Protocol Encryption - Forced Bandwidth Allocation - High (Set download/upload limit - Unlimited) Stop Other Active Torrents - Start downloading and wait for connections. Enjoy and Seed for at least 1:1 ratio. Don\'t forget to say thanks/leave reviews. Before downloading you should check/google search sample \"release name\"\"sample\". Greets to all actual/future p2p/scene QUALITY groups and affiliate websites. Don\'t trust IMDb robot or bad ratings,always watch some trailers first. Ignore stupid comments/fake/mislabeled/no-DVDrips/CAM/TS/RAR uploads. Please spread this release/torrent to your friends/forums/etc. If you need translation subs visit some subtitles sites. Report if you see online streaming or other spam links. Recommended movie player VLC PLAYER.
Comments: Read reviews (0) or add your own
0 0

TrackersChange date: 2012-05-04 01:30:05

Tracker Seeds Leechers
http://00
http://tracker.torrent.to:2710/announce00
http://tracker.publicbt.com/announce00
http://pow7.com/announce00
http://tv.tracker.prq.to/announce00
http://10.rarbg.com/announce00

Files

File name Size
Chronicle 2012 HINDI MOVIE/Chronicle 2012 HINDI MOVIE.avi   Chronicle 2012 HINDI MOVIE/Chronicle 2012 HINDI MOVIE.avi 849.19 MB
Chronicle 2012 HINDI MOVIE/Chronicle.avi   Chronicle 2012 HINDI MOVIE/Chronicle.avi 8.19 MB
Chronicle 2012 HINDI MOVIE/Release.nfo   Chronicle 2012 HINDI MOVIE/Release.nfo 2.98 KB
Chronicle 2012 HINDI MOVIE/Torrent Downloaded From ExtraTorrent.com.txt   Chronicle 2012 HINDI MOVIE/Torrent Downloaded From ExtraTorrent.com.txt 353.00 B
Chronicle 2012 HINDI MOVIE/chronicle.png   Chronicle 2012 HINDI MOVIE/chronicle.png 72.92 KB

No reviews posted yet.

Add your own review

Post comment

Type: 
Comment: