Gravity 2013 720p BRRip x264 DTS HD torrent


Category: Movies
Added: 1 Year+
Size: 777 MB
Peers: 0 Seeders & 0 Leechers Gravity 2013 720p BRRip x264 DTS HD torrent health  [ Update ]
updated 'never'
Infohash: c64829e3b52b59adb096c2645dda080cec88ca32
Share:
Uploader: badboyradu
Description: Format : AVI Format/Info : Audio Video Interleave Format profile : OpenDML Overall bit rate : 1 800 Kbps Writing application : VirtualDubMod 1.5.10.2 (build 2542/release) Writing library : VirtualDubMod build 2542/release Video Format : MPEG-4 Visual Format settings, BVOP : Yes Format settings, QPel : No Format settings, Matrix : Default (MPEG) Codec ID : x264 Codec ID/Hint : x264 Bit rate : 1 411 Kbps Width : 1280 pixels Height : 720 pixels Display aspect ratio : 16:9 Frame rate : 29.97 fps Resolution : 24 bits Colorimetry : 4:2:0 Scan type : Progressive Bits/(Pixel*Frame) : 0.338 Stream size : 1.03 GiB (78%) Audio Format : AC-3 Format/Info : Audio Coding 3 Codec ID : 2000 Bit rate mode : Constant Bit rate : 384 Kbps Channel(s) : 6 channels Channel positions : Front: L C R, Surround: L R, LFE Sampling rate : 48.0 KHz Stream size : 287 MiB (21%) Alignment : Aligned on interleaves Interleave, duration : 64 ms (1.53 video frames) Interleave, preload duration : 192 ms
Comments: Read reviews (0) or add your own

Files

File name Size
Torrent Downloaded From downloadhindimovies.in.txt   Torrent Downloaded From downloadhindimovies.in.txt 1.68 KB
Torrent downloaded from h33t.com.txt   Torrent downloaded from h33t.com.txt 1.68 KB
Dmt Nfo.txt   Dmt Nfo.txt 1.68 KB
Gravity.2013.720p.BRRip.x264.DTS.HD.nfo   Gravity.2013.720p.BRRip.x264.DTS.HD.nfo 1.71 KB
Gravity.2013.720p.BRRip.x264.DTS.HD.avi   Gravity.2013.720p.BRRip.x264.DTS.HD.avi 10.00 MB
Gravity.2013.720p.BRRip.x264.DTS.HD.jpeg   Gravity.2013.720p.BRRip.x264.DTS.HD.jpeg 1.00 MB
Gravity.2013.720p.BRRip.x264.DTS.HD/Gravity.2013.720p.BRRip.x264.DTS.HD.rar   Gravity.2013.720p.BRRip.x264.DTS.HD/Gravity.2013.720p.BRRip.x264.DTS.HD.rar 765.00 MB

No reviews posted yet.

Add your own review

Post comment

Type: 
Comment: