Boss [2013] DVDScr x264 [Hindi] torrent


Category: Movies
Added: 9 months ago
Size: 690 MB
Peers: 3 Seeders & 3 Leechers Boss [2013] DVDScr x264 [Hindi] torrent health  [ Update ]
updated 'never'
Infohash: 971827637752999dcece5c98856247f46bcb755f
Share:
Description: IMDB:Boss (2013) - IMDbInfo:General Format : Matroska Format version : Version 4 / Version 2 File size : 688 MiB Duration : 2h 24mn Overall bit rate : 665 Kbps Video ID : 1 Format : MPEG-4 Visual Format profile : Advanced Simple@L5 Format settings, BVOP : Yes Format settings, QPel : Yes Format settings, GMC : No warppoints Format settings, Matrix : Default (H.263) Codec ID : V_MS/VFW/FOURCC / XVID Codec ID/Hint : XviD Duration : 2h 24mn Bit rate : 572 Kbps Width : 608 pixels Height : 256 pixels Display aspect ratio : 2.40:1 Frame rate mode : Constant Frame rate : 23.976 fps Color space : YUV Chroma subsampling : 4:2:0 Bit depth : 8 bits Scan type : Progressive Compression mode : Lossy Bits/(Pixel*Frame) : 0.153 Stream size : 592 MiB (86%) Title : Boss DVDScr x264 Writing library : XviD 1.2.1 (UTC 2008-12-04) Language : Hindi Default : Yes Forced : No Audio ID : 2 Format : MPEG Audio Format version : Version 1 Format profile : Layer 3 Mode : Joint stereo Mode extension : MS Stereo Codec ID : A_MPEG/L3 Codec ID/Hint : MP3 Duration : 2h 24mn Bit rate mode : Constant Bit rate : 80.0 Kbps Channel(s) : 2 channels Sampling rate : 32.0 KHz Compression mode : Lossy Stream size : 82.8 MiB (12%) Title : Boss DVDScr x264 Writing library : LAME3.99r Encoding settings : -m j -V 4 -q 2 -lowpass 13.5 -b 80 Language : Hindi Default : Yes Forced : No
Comments: Read reviews (0) or add your own
Recommended Clients:
TorrentPrivacy – For secure download

Files

File name Size
Boss [2013] DVDScr x264 [Hindi]/Boss [2013] DVDScr x264 [Hindi].mkv   Boss [2013] DVDScr x264 [Hindi]/Boss [2013] DVDScr x264 [Hindi].mkv 688.02 MB
Boss [2013] DVDScr x264 [Hindi]/vlcsnap-2013-10-20-01h15m23s81.png   Boss [2013] DVDScr x264 [Hindi]/vlcsnap-2013-10-20-01h15m23s81.png 364.13 KB
Boss [2013] DVDScr x264 [Hindi]/vlcsnap-2013-10-20-01h15m35s254.png   Boss [2013] DVDScr x264 [Hindi]/vlcsnap-2013-10-20-01h15m35s254.png 284.00 KB
Boss [2013] DVDScr x264 [Hindi]/vlcsnap-2013-10-20-01h15m14s3.png   Boss [2013] DVDScr x264 [Hindi]/vlcsnap-2013-10-20-01h15m14s3.png 281.73 KB
Boss [2013] DVDScr x264 [Hindi]/vlcsnap-2013-10-20-01h15m05s164.png   Boss [2013] DVDScr x264 [Hindi]/vlcsnap-2013-10-20-01h15m05s164.png 276.00 KB
Boss [2013] DVDScr x264 [Hindi]/vlcsnap-2013-10-20-01h15m57s0.png   Boss [2013] DVDScr x264 [Hindi]/vlcsnap-2013-10-20-01h15m57s0.png 246.52 KB
Boss [2013] DVDScr x264 [Hindi]/vlcsnap-2013-10-20-01h14m26s36.png   Boss [2013] DVDScr x264 [Hindi]/vlcsnap-2013-10-20-01h14m26s36.png 231.29 KB

No reviews posted yet.

Add your own review

Post comment

Type: 
Comment: